fmpeg将mov文件转换为mp4?

内容来源于 Stack Overflow,并遵循CC BY-SA 3.0许可协议进行翻译与使用

  • 回答 (1)
  • 关注 (0)
  • 查看 (1926)

我安装了ffmpeg,我将所有上传的视频编码为.mp4文件,目前大多数用户上传.mov文件,我想将每个视频文件转换为.mp4文件。

我正在运行命令如下。

ffmpeg -i movie.mov -vcodec copy -acodec cop out.mp4

但我得到的是以下错误

ffmpeg version 0.8.5, Copyright (c) 2000-2011 the FFmpeg developers
  built on Aug 19 2012 11:38:20 with clang 3.1 (tags/Apple/clang-318.0.61)
  configuration: --enable-nonfree --enable-gpl --enable-version3 --enable-postproc --enable-swscale --enable-avfilter --enable-libmp3lame --enable-libvorbis --enable-libtheora --enable-libfaac --enable-libxvid --enable-libx264 --enable-libvpx --enable-hardcoded-tables --enable-shared --enable-pthreads --disable-indevs --cc=clang
  libavutil    51.  9. 1 / 51.  9. 1
  libavcodec   53.  7. 0 / 53.  7. 0
  libavformat  53.  4. 0 / 53.  4. 0
  libavdevice  53.  1. 1 / 53.  1. 1
  libavfilter   2. 23. 0 /  2. 23. 0
  libswscale    2.  0. 0 /  2.  0. 0
  libpostproc  51.  2. 0 / 51.  2. 0
Input #0, mov,mp4,m4a,3gp,3g2,mj2, from 'movie.mov':
  Metadata:
    major_brand     : qt  
    minor_version   : 537199360
    compatible_brands: qt  
    creation_time   : 2012-03-28 07:13:20
  Duration: 00:00:26.23, start: 0.000000, bitrate: 12974 kb/s
    Stream #0.0(eng): Video: mjpeg, yuvj420p, 1280x720 [PAR 72:72 DAR 16:9], 12972 kb/s, 11.67 fps, 600 tbr, 600 tbn, 600 tbc
    Metadata:
      creation_time   : 2012-03-28 07:13:20
File 'out.mp4' already exists. Overwrite ? [y/N] y
Output #0, mp4, to 'out.mp4':
  Metadata:
    major_brand     : qt  
    minor_version   : 537199360
    compatible_brands: qt  
    creation_time   : 2012-03-28 07:13:20
    encoder         : Lavf53.4.0
    Stream #0.0(eng): Video: mjpeg, yuvj420p, 1280x720 [PAR 72:72 DAR 16:9], q=2-31, 12972 kb/s, 600 tbn, 600 tbc
    Metadata:
      creation_time   : 2012-03-28 07:13:20
Stream mapping:
  Stream #0.0 -> #0.0
Press [q] to stop, [?] for help
frame=  121 fps=  0 q=-1.0 size=   16408kB time=00:00:10.08 bitrate=13332.2kbitsframe=  306 fps=  0 q=-1.0 Lsize=   41543kB time=00:00:26.12 bitrate=13025.0kbits/s    
video:41538kB audio:0kB global headers:0kB muxing overhead 0.012531%
提问于
用户回答回答于

看看下面的内容

ffmpeg -i movie.mov -vcodec copy -acodec cop out.mp4

ffmpeg -i movie.mov -vcodec copy -acodec copy out.mp4

你拼写错误。

所属标签

可能回答问题的人

  • 天使的炫翼

    15 粉丝531 提问35 回答
  • 旺仔小小鹿

    社区 · 运营 (已认证)

    48 粉丝0 提问27 回答
  • 富有想象力的人

    2 粉丝0 提问26 回答
  • 发条丶魔灵1

    6 粉丝525 提问25 回答

扫码关注云+社区

领取腾讯云代金券