展开

关键词

MPEG4视频中,I帧、p帧、B帧的判定(转载) By HKL,

mpeg4的每一帧开头是固定的:00 00 01 b6,那么我们如何判断当前帧属于什么帧呢?在接下来的2bit,将会告诉我们答案。

17710

Web直播点播平台EasyDSS点播上传纯MPEG4文件硬件转码无法播放如何解决?

我们偶尔会碰到EasyDSS平台内上传点播文件,上传纯MPEG4视频文件时试用硬件转码无法播放的情况。 配置如下:播放失败: image.png 首先出现这个问题的前提是需要将点播的配置设置成硬件转码,然后上传纯MPEG4文件格式的视频。上传一直到转码成功的步骤都是正常的,但是却是无法播放。 经过排查,发现原因是MPEG4文件不支持硬件转码,因此在此处我们需要舍弃硬件转码的方式,采用软件转码。获取上传文件的原始格式,如果是MPEG4格式的视频,则不进行硬件转码,通过软件转码。       libx264 会导致 cpu 使用率 为 100%      vcodec = h265VideoTranWay      vod.VideoCodec = H.264   case MPEG4 :      MPEG4无法使用硬件转码   default:      vcodec = videoTranWay   }}播放成功:

14120
  • 广告
    关闭

    腾讯云前端性能优化大赛

    首屏耗时优化比拼,赢千元大奖

  • 您找到你想要的搜索结果了吗?
    是的
    没有找到

    ffmpeg avi 转aac 12000 hz flv失败,得多绕几圈。。。

    %%a in (*.avi) do ffmpeg -i %%~na.avi -pix_fmt yuv420p -c:v libx264 0%%~na.mp4转后得mp4参数如下:Video: MPEG4 %%a in (*.mp4) do ffmpeg -i %%~na.mp4 -vcodec copy 0%%~na.flv转换后得flv参数:Video: MPEG4 Video (H264) 720x576 %%a in (*.flv) do ffmpeg -i %%~na.flv -vcodec copy -c:a aac -ar 12000 0%%~na.flv转换后得flv参数如下:Video: MPEG4

    35220

    wince版ffmpeg音视频播放器

    支持音乐播放的频谱显示6.支持S3C6410 H264、H263、VC-1WMV3、Mpeg4 480P 30fps播放7.支持S5PC100 H264、H263、VC-1WMV3、Mpeg4、Mpeg2

    71320

    「小程序JAVA实战」小程序视频处理工具ffmpeg(47)

    :29:47.000000Z handler_name : Core Media AudioStream mapping: Stream #0:0 -> #0:0 (h264 (native) -> mpeg4 creation_time : 2018-09-16T05:29:47.000000Z handler_name : Core Media Video encoder : Lavc58.30.100 mpeg4 (native) -> mpeg4 (native)) Stream #1:0 -> #0:1 (mp3 (mp3float) -> mp3 (libmp3lame))Press to stop, avi: Metadata: ISFT : Lavf58.18.100 Stream #0:0: Video: mpeg4 (FMP4 0x34504D46), yuv420p(progressive ), 544x960 , q=2-31, 200 kbs, 29.97 fps, 29.97 tbn, 29.97 tbc Metadata: encoder : Lavc58.30.100 mpeg4

    41320

    FFmpeg参数详解

    FF_EC_GUESS_MVS(default=enabled)2 FF_EC_DEBLOCK(default=enabled)-bf frames 使用frames B 帧,支持mpeg1,mpeg2,mpeg4 mbd mode 宏块决策0 FF_MB_DECISION_SIMPLE使用mb_cmp1 FF_MB_DECISION_BITS2 FF_MB_DECISION_RD-4mv 使用4个运动矢量 仅用于mpeg4 -part 使用数据划分 仅用于mpeg4-bug param 绕过没有被自动监测到编码器的问题-strict strictness 跟标准的严格性-aic 使用高级帧内编码 h263+-umv 使能无限运动矢量 h263+-deinterlace 不采用交织法-interlace 强迫交织法编码仅对mpeg2和mpeg4有效。

    3K10

    FFMPEG-如何对视频按时长切片与压缩

    www.pcfreetime.com Duration: 00:03:25.01, start: 0.000000, bitrate: 1101 kbs Stream #0:0(und): Video: mpeg4 www.pcfreetime.com Duration: 00:03:25.01, start: 0.000000, bitrate: 1101 kbs Stream #0:0(und): Video: mpeg4 major_brand : isom minor_version : 1 compatible_brands: isom encoder : Lavf57.25.100 Stream #0:0(und): Video: mpeg4

    65010

    ffmpeg + m3u8-segmen

    tar xvf lame-3.99.5.tar.gz  cd lame-3.99.5  .configure --enable-nasmmake && make install1.4 安装faac库支持mpeg4 clone git:git.videolan.orgx264.git cd x264 .configure --enable-sharedmake && make install1.8 安装xvid库支持mpeg4 视频转码 wget http:downloads.xvid.orgdownloadsxvidcore-1.3.2.tar.gz         获取最新的xvid mpeg4编×××源代码 tar xvf

    53120

    一篇文章教会你使用HTML5加载音频和视频

    mpeg4:带有 H.264 视频编码器和 AAC 音频编码器的 MPEG4 文件。我们可以使用带有媒体类型和其他属性的 标签指定媒体文件。

    16610

    快速学习-FFmpeg 的基本使用

    音视频编码格式各类繁多,主要有几下几类: MPEG系列 (由ISO下属的MPEG开发 )视频编码方面主要是Mpeg1(vcd用 的就是它)、Mpeg2(DVD使用)、Mpeg4(的DVDRIP使用的都是它的变种 ,如:divx,xvid等)、Mpeg4 AVC(正热门);音频编码方面主要是MPEG Audio Layer 12、MPEG Audio Layer 3(大名鼎鼎的mp3)、 MPEG-2 AAC 、 H.26X系列 (由ITU主导,侧重网络传输,注意:只是视频编码) 包括H.261、H.262、 H.263、H.263+、H.263++、H.264(就是MPEG4 AVC-合作的结晶)目前最常用的编码标准是视频

    23510

    干货:如何实现RTSP推送H.264、RTSP推送H.265(hevc)

    WbgICAoAAADAAgAAAMBlCA=,aO48gA==; profile-level-id=4D002Aa=control:streamid=0m=audio 0 RTPAVP 97a=rtpmap:97 MPEG4 192.168.0.174t=0 0m=video 0 RTPAVP 96a=rtpmap:96 H26590000a=control:streamid=0m=audio 0 RTPAVP 97a=rtpmap:97 MPEG4

    1.1K40

    maybe incorrect parameters such as bit_rate, rate, width or height

    rawvideo -vcodec rawvideo -s 560x320 -pix_fmt bgr24 -i - -r 30 -b:v 22710k -bufsize 22710k -an -sn -vcodec mpeg4

    49471

    what is Android?

    structured data storage 结构数据存储Media support多毁体支持 for common audio, video, and still image formats (MPEG4 , H.264, MP3, AAC, AMR, JPG, PNG, GIF) 用于audio,video,和及图像格式(MPEG4, H.264, MP3, AAC, AMR, JPG, PNG, GIF playback and recording of many popular audio and video formats, as well as static image files, including MPEG4 MP3, AAC, AMR, JPG, and PNG多媒体库----基于PacketVideos OpenCORE(轻便的视频开放核);这些库支持回放及录制多种流行的音视频格式和静态图像文件;包括了MPEG4

    8620

    解决微信视频号 当前浏览器不支持此视频格式 的错误消息

    我选择的是自定义输出格式:Video Encode 为 MPEG4(DivX).修改成 AVC(H264)之后,问题解决:?现在可以成功上传视频了: ?

    72130

    ffmpeg

    ffmpeg8大模块libavformat格式模块libavutil简化编程工具、数据函数和数据结构libavcodec编解码,支持MPEG4、AAC、MJPEG、H.264、H.265、MP3libavfilter

    27840

    使用ffmpeg转换文件格式,及ffmpeg参数说明(转)

    FF_EC_GUESS_MVS (default=enabled) 2 FF_EC_DEBLOCK (default=enabled) -bf frames 使用frames B 帧,支持mpeg1,mpeg2,mpeg4 mode 宏块决策 0 FF_MB_DECISION_SIMPLE 使用mb_cmp 1 FF_MB_DECISION_BITS 2 FF_MB_DECISION_RD -4mv 使用4个运动矢量 仅用于mpeg4 -part 使用数据划分 仅用于mpeg4 -bug param 绕过没有被自动监测到编码器的问题 -strict strictness 跟标准的严格性 -aic 使能高级帧内编码 h263+ -umv 使能无限运动矢量 h263+ -deinterlace 不采用交织方法 -interlace 强迫交织法编码 仅对mpeg2和mpeg4有效。

    4.7K10

    我的非线性视频编辑器MiaoVideoCut(1) --- 视频基础知识及环境搭建

    MPEG系列 (由ISO下属的MPEG开发 )视频编码方面主要是Mpeg1(vcd用的就是它)、Mpeg2(DVD使用)、Mpeg4(的DVDRIP使用的都是它的变种,如:divx,xvid等)、Mpeg4 H.26X系列(由ITU主导,侧重网络传输,注意:只是视频编码)包括H.261、H.262、H.263、H.263+、H.263++、H.264(就是MPEG4 AVC-合作的结晶) 图像压缩编码有多种 MP4:主要应用于mpeg4的封装 。TSPS:PS封装只能在HDDVD原版。WMV:微软推出的,作为市场竞争。#解码 解码,是编码流程的逆过程。

    33940

    ffmpeg视频处理神器学习基础笔记

    FF_EC_GUESS_MVS (default=enabled) 2 FF_EC_DEBLOCK (default=enabled) -bf frames 使用frames B 帧,支持mpeg1,mpeg2,mpeg4 mode 宏块决策 0 FF_MB_DECISION_SIMPLE 使用mb_cmp 1 FF_MB_DECISION_BITS 2 FF_MB_DECISION_RD -4mv 使用4个运动矢量 仅用于mpeg4 -part 使用数据划分 仅用于mpeg4 -bug param 绕过没有被自动监测到编码器的问题 -strict strictness 跟标准的严格性 -aic 使能高级帧内编码 h263+ -umv 使能无限运动矢量 h263+ -deinterlace 不采用交织方法 -interlace 强迫交织法编码仅对mpeg2和mpeg4有效。

    34133

    视频编码历史简单介绍

    少林绝学.jpg武当派(ISO)开发了mpeg1, mpeg2, mpeg4等编码格式?

    12920

    centos7下FFmpeg环境部署记录

    test.mp4 –vcodec h264 –bf 0 –g 25 –s 352*278 –an –f m4v test.264 转码为码流原始文件ffmpeg –i test.avi -vcodec mpeg4 rawvideo -video_size 1920x1080 input.yuv 8)YUV序列转AVIffmpeg –s w*h –pix_fmt yuv420p –i input.yuv –vcodec mpeg4

    2.8K70

    相关产品

    • 云服务器

      云服务器

      腾讯云服务器(CVM)为您提供安全可靠的弹性云计算服务。只需几分钟,您就可以在云端获取和启用云服务器,并实时扩展或缩减云计算资源。云服务器 支持按实际使用的资源计费,可以为您节约计算成本。

    相关资讯

    热门标签

    活动推荐

      运营活动

      活动名称
      广告关闭

      扫码关注云+社区

      领取腾讯云代金券