如何使用FFMPEG可靠地将视频转换为iPhone / iPod和Flash播放器的MP4?

内容来源于 Stack Overflow,并遵循CC BY-SA 3.0许可协议进行翻译与使用

  • 回答 (2)
  • 关注 (0)
  • 查看 (278)

我需要将视频转换为用于Flash Player和iPhone / iPod touch。我正在使用以下批处理脚本和ffmpeg:

@echo off
ffmpeg.exe -i %1 -s qvga -acodec libfaac -ar 22050 -ab 128k -vcodec libx264 -threads 0 -f ipod %2

这总是输出一个mp4文件,我可以随时在我的电脑上播放。这些视频在我的iPhone 3GS上似乎也很好。但对于一些输入文件,它不适用于较老的iphone版本(3G和iPod touch)。

这是一个这样的文件的ffmpeg输出:

D:\ffmpeg>encode.bat d:\temp\recording.flv d:\temp\out.m4v
FFmpeg version SVN-r18709, Copyright (c) 2000-2009 Fabrice Bellard, et al.
  configuration: --enable-memalign-hack --prefix=/mingw --cross-prefix=i686-ming
w32- --cc=ccache-i686-mingw32-gcc --target-os=mingw32 --arch=i686 --cpu=i686 --e
nable-avisynth --enable-gpl --enable-zlib --enable-bzlib --enable-libgsm --enabl
e-libfaac --enable-libfaad --enable-pthreads --enable-libvorbis --enable-libtheo
ra --enable-libspeex --enable-libmp3lame --enable-libopenjpeg --enable-libxvid -
-enable-libschroedinger --enable-libx264
  libavutil     50. 3. 0 / 50. 3. 0
  libavcodec    52.27. 0 / 52.27. 0
  libavformat   52.32. 0 / 52.32. 0
  libavdevice   52. 2. 0 / 52. 2. 0
  libswscale     0. 7. 1 /  0. 7. 1
  built on Apr 28 2009 04:04:42, gcc: 4.2.4
[flv @ 0x187d650]skipping flv packet: type 18, size 164, flags 0
Input #0, flv, from 'd:\temp\recording.flv':
  Duration: 00:00:07.17, start: 0.001000, bitrate: N/A
    Stream #0.0: Video: flv, yuv420p, 320x240, 1k tbr, 1k tbn, 1k tbc
    Stream #0.1: Audio: nellymoser, 44100 Hz, mono, s16
[libx264 @ 0x13518b0]using cpu capabilities: MMX2 SSE2Fast SSSE3 FastShuffle SSE
4.2
[libx264 @ 0x13518b0]profile Baseline, level 4.2
Output #0, ipod, to 'd:\temp\out.m4v':
    Stream #0.0: Video: libx264, yuv420p, 320x240, q=2-31, 200 kb/s, 1k tbn, 1k
tbc
    Stream #0.1: Audio: libfaac, 22050 Hz, mono, s16, 128 kb/s
Stream mapping:
  Stream #0.0 -> #0.0
  Stream #0.1 -> #0.1
Press [q] to stop encoding
frame=   90 fps=  0 q=-1.0 Lsize=     128kB time=6.87 bitrate= 152.4kbits/s
video:92kB audio:32kB global headers:1kB muxing overhead 2.620892%
[libx264 @ 0x13518b0]slice I:8     Avg QP:29.62  size:  7047
[libx264 @ 0x13518b0]slice P:82    Avg QP:30.83  size:   467
[libx264 @ 0x13518b0]mb I  I16..4: 17.9%  0.0% 82.1%
[libx264 @ 0x13518b0]mb P  I16..4:  0.6%  0.0%  0.0%  P16..4: 23.1%  0.0%  0.0%
 0.0%  0.0%    skip:76.3%
[libx264 @ 0x13518b0]final ratefactor: 57.50
[libx264 @ 0x13518b0]SSIM Mean Y:0.9544735
[libx264 @ 0x13518b0]kb/s:8412.6

我怀疑它与音频编码有关。如果是这样,有谁知道如何强制它重新编码音频到正确的格式?

提问于
用户回答回答于

Spoiler:

ffmpeg -i INPUT -s 320x240 -r 30000/1001 -b 200k -bt 240k -vcodec libx264 -coder 0 -bf 0 -refs 1 -flags2 -wpred -dct8x8 -level 30 -maxrate 10M -bufsize 10M -acodec libfaac -ac 2 -ar 48000 -ab 192k OUTPUT.mp4
用户回答回答于

我认为这个问题是H.264级别是4.2级。

某些Apple设备仅支持最高3.0。

以下是我通常使用的FFMPEG设置:

ffmpeg -i YOUR-INPUT.wmv -s qvga -b 384k -vcodec libx264 -r 23.976 -acodec libfaac -ac 2 -ar 44100 -ab 64k -vpre baseline -crf 22 -deinterlace -o YOUR-OUTPUT.MP4

可以根据需要调整速率,大小和比特率。重要的设置位于基准配置参数中。

扫码关注云+社区

领取腾讯云代金券